Никита Кожемяка / Микита Кожумяка (Манук Депоян) [2016 г., Україна, мультфільм, комедія, сімейний, фентезі, пригоди, WEB-DLRip-AVC], iTunes-UKR

Відповісти на тему
 
Автор Повідомлення

Сотник ®

Стать: Чоловік

Стаж: 3 року 7 місяців

Повідомлень: 50

Звідки: Україна

Створювати теми 24-Чер-2017 06:54

[Цитувати]

Никита Кожемяка / Микита Кожум'яка
Країна: Україна
Режисер: Манук Депоян
Жанр: мультфільм, комедія, сімейний, фентезі, пригоди
Тривалість: 85 хв / 01:25
Рік випуску: 2016 г.
Переклад: російський, Український
Субтитри: немає
Опис: Маленький Микита, син відомого богатиря Кожум'яки, вирішив, що теж може перемогти дракона, як це колись зробив його батько. Не дивлячись на його заборони, Микита знаходить спосіб вплутатися в пригоди і тепер тільки від його хоробрості залежить, чи здолає він ожилого дракона і потрапить з чарівного світу назад додому...
Якість відео: WEB-DLRip-AVC (iTunes)
Формат відео: MKV
Відео кодек: XviD
Аудио кодек: AC3
Відео: MPEG-4 AVC, 1024x574 (16:9), 3058 Kbit/s, 24.000 fps, 0,217 bpp
Аудіо-1: 48 kHz, AC3, 5.1, 384 Kbps | RUS
Аудіо-2: 48 kHz, AC3, 2.0, 160 Kbps | Оригинал | UKR

Скріншоти

MI

General
Unique ID : 178979259093146507611217564817186085107 (0x86A626C5810BFA0791C411B7B08BD8F3)
Complete name : D:Mikita.Koghemiaka.2016.D.WEB-DLRip.AVC.ExKinoRay.mkv
Format : Matroska
Format version : Version 2
File size : 2.18 GiB
Duration : 1 h 26 min
Overall bit rate : 3 604 kb/s
Movie name : Микита Кожум'яка (2016) from ExKinoRay
Encoded date : UTC 2017-06-24 02:12:40
Writing application : mkvmerge v5.6.0 ('Kenya Kane') built on May 27 2012 16:44:04
Writing library : libebml v1.2.3 + libmatroska v1.3.0
Video
ID : 1
Format : AVC
Format/Info : Advanced Video Codec
Format profile : High@L4.1
Format settings, CABAC : Yes
Format settings, ReFrames : 12 frames
Codec ID : V_MPEG4/ISO/AVC
Duration : 1 h 26 min
Bit rate : 3 058 kb/s
Width : 1 024 pixels
Height : 574 pixels
Display aspect ratio : 16:9
Frame rate mode : Constant
Frame rate : 24.000 FPS
Color space : YUV
Chroma subsampling : 4:2:0
Bit depth : 8 bits
Scan type : Progressive
Bits/(Pixel*Frame) : 0.217
Stream size : 1.80 GiB (83%)
Title : Enigma
Writing library : x264 core 144 r2525 40bb568
Encoding settings : cabac=1 / ref=12 / deblock=1:-2:-2 / analyse=0x3:0x113 / me=umh / subme=10 / psy=1 / psy_rd=1.00:0.02 / mixed_ref=1 / me_range=32 / chroma_me=1 / trellis=2 / 8x8dct=1 / cqm=0 / deadzone=21,11 / fast_pskip=1 / chroma_qp_offset=-3 / threads=12 / lookahead_threads=3 / sliced_threads=0 / nr=0 / decimate=0 / interlaced=0 / bluray_compat=0 / constrained_intra=0 / bframes=10 / b_pyramid=2 / b_adapt=2 / b_bias=0 / direct=3 / weightb=1 / open_gop=0 / weightp=2 / keyint=240 / keyint_min=24 / scenecut=40 / intra_refresh=0 / rc_lookahead=40 / rc=2pass / mbtree=0 / bitrate=3058 / ratetol=1.0 / qcomp=0.65 / qpmin=0 / qpmax=51 / qpstep=4 / cplxblur=20.0 / qblur=0.5 / vbv_maxrate=50000 / vbv_bufsize=62500 / nal_hrd=none / filler=0 / ip_ratio=1.40 / pb_ratio=1.30 / aq=1:1.00
Default : Yes
Forced : No
Color range : Limited
Color primaries : BT.709
Transfer characteristics : BT.709
Matrix coefficients : BT.709
Audio #1
ID : 2
Format : AC-3
Format/Info : Audio Coding 3
Mode extension : CM (complete main)
Format settings, Endianness : Big
Codec ID : A_AC3
Duration : 1 h 26 min
Bit rate mode : Constant
Bit rate : 384 kb/s
Channel(s) : 6 channels
Channel positions : Front: L C R, Side: L R, LFE
Sampling rate : 48.0 kHz
Frame rate : 31.250 FPS (1536 spf)
Compression mode : Lossy
Stream size : 237 MiB (11%)
Title : Dub (iTunes)
Language : Russian
Default : Yes
Forced : No
Audio #2
ID : 3
Format : AC-3
Format/Info : Audio Coding 3
Mode extension : CM (complete main)
Format settings, Endianness : Big
Codec ID : A_AC3
Duration : 1 h 26 min
Bit rate mode : Constant
Bit rate : 160 kb/s
Channel(s) : 2 channels
Channel positions : Front: L R
Sampling rate : 48.0 kHz
Frame rate : 31.250 FPS (1536 spf)
Compression mode : Lossy
Stream size : 98.9 MiB (4%)
Title : Original
Language : Ukrainian
Default : No
Forced : No
Menu
00:00:00.000 : en:Глава 1
00:05:20.208 : en:Глава 2
00:12:57.958 : en:Глава 3
00:18:46.124 : en:Глава 4
00:24:28.499 : en:Глава 5
00:30:18.249 : en:Глава 6
00:35:41.124 : en:Глава 7
00:41:02.957 : en:Глава 8
00:47:22.665 : en:Глава 9
00:54:12.956 : en:Глава 10
00:58:05.164 : en:Глава 11
01:03:31.664 : en:Глава 12
01:07:02.664 : en:Глава 13
01:11:15.580 : en:Глава 14
01:16:00.871 : en:Глава 15
[Профіль] [ОП]
Показати повідомлення:    
Відповісти на тему

Поточний час: 11-Грд 06:57

Часовий пояс: UTC + 3



Ви не можете починати теми
Ви не можете відповідати на повідомлення
Ви не можете редагувати свої повідомлення
Ви не можете видаляти свої повідомлення
Ви не можете голосувати в опитуваннях
Ви не можете прикріплювати файли до повідомлень
Ви не можете скачувати файли