Атлантида / Cold Skin (2017) WEB-DLRip-AVC | iTunes

Відповісти на тему
 
Автор Повідомлення

Сотник ®

Стать: Чоловік

Стаж: 3 року 8 місяців

Повідомлень: 50

Звідки: Україна

Створювати теми 06-Січ-2018 09:37

[Цитувати]

Атлантида
Cold Skin
«Открой тайну затерянной цивилизации»

Страна: Испания, Франция
Жанр: ужасы, фантастика, триллер, приключения
Год выпуска: 2017
Продолжительность: 01:42:06
Перевод: Профессиональный (полное дублирование) [iTunes]
Субтитры: нет
Оригинальная аудиодорожка: нет
Режиссер: Ксавье Жанс / Xavier Gens
В ролях: Рэй Стивенсон, Дэвид Оукс, Аура Гарридо, Уинслоу Иваки, Джон Бенфилд, Бен Темпле, Иван Гонсалес, Алехандро Род, Жюльен Блашке, Дамиан Монтесдеока, Израэль Бодеро, Роберто Ринкон
Описание:
После длительного плавания молодой метеоролог Френд прибывает на затерянный в океане остров принять годичную вахту на метеостанции. На острове оказывается лишь суровый и немногословный смотритель маяка Грюнер. Френд довольно быстро понимает, что Грюнер что-то скрывает, старый метеоролог попал в какую-то передрягу, а остров кажется необитаемым только на первый взгляд.

Сэмпл
Качество видео: WEB-DLRip-AVC [Cold Skin (2017) WEB-DL 1080p -BLUEBIRD]
Формат видео: MKV
Видео кодек: AVC
Аудио кодек: AC3
Видео: 1685 Кбит/сек, 1108x464 (2.40:1), 25 кадр/сек, AVC
Аудио: русский, 384 Кбит/сек, 48 КГц, 5.1, AC3
Навигация по главам: есть

x264/MediaInfo

---[Information] [03.01.2018 15:47:24] x264 [info]: frame I:1002 Avg QP:16.43 size: 46773
---[Information] [03.01.2018 15:47:24] x264 [info]: frame P:38587 Avg QP:17.74 size: 17355
---[Information] [03.01.2018 15:47:24] x264 [info]: frame B:113570 Avg QP:20.50 size: 5056
General
Unique ID : 216796259154424672850072272648098303449 (0xA31970D3EBE1EF3C81CA164E52E84DD9)
Complete name : M:$newCold Skin (2017)Cold.Skin.2017.WEB-DLRip-AVC.RUS.stalkerok.new-team.mkv
Format : Matroska
Format version : Version 4 / Version 2
File size : 1.48 GiB
Duration : 1 h 42 min
Overall bit rate : 2 071 kb/s
Movie name : Cold Skin (2017) (Rip by stalkerok)
Encoded date : UTC 2018-01-03 12:48:33
Writing application : mkvmerge v8.6.1 ('Flying') 64bit
Writing library : libebml v1.3.3 + libmatroska v1.4.4
Video
ID : 2
Format : AVC
Format/Info : Advanced Video Codec
Format profile : High@L4.1
Format settings, CABAC : Yes
Format settings, ReFrames : 14 frames
Codec ID : V_MPEG4/ISO/AVC
Duration : 1 h 42 min
Bit rate : 1 686 kb/s
Width : 1 108 pixels
Height : 464 pixels
Display aspect ratio : 2.40:1
Frame rate mode : Constant
Frame rate : 25.000 FPS
Color space : YUV
Chroma subsampling : 4:2:0
Bit depth : 8 bits
Scan type : Progressive
Bits/(Pixel*Frame) : 0.131
Stream size : 1.20 GiB (81%)
Title : Cold Skin (2017) (Rip by stalkerok)
Writing library : x264 core 152 r2851kMod ba24899
Encoding settings : cabac=1 / ref=14 / deblock=1:-3:-2 / analyse=0x3:0x133 / me=umh / subme=10 / psy=1 / fade_compensate=0.00 / psy_rd=1.00:0.00 / mixed_ref=1 / me_range=32 / chroma_me=1 / trellis=2 / 8x8dct=1 / cqm=0 / deadzone=21,11 / fast_pskip=0 / chroma_qp_offset=-2 / threads=12 / lookahead_threads=3 / sliced_threads=0 / nr=0 / decimate=1 / interlaced=0 / bluray_compat=0 / constrained_intra=0 / bframes=14 / b_pyramid=2 / b_adapt=2 / b_bias=0 / direct=3 / weightb=1 / open_gop=0 / weightp=2 / keyint=250 / keyint_min=25 / scenecut=40 / intra_refresh=0 / rc_lookahead=60 / rc=crf / mbtree=0 / crf=19.0000 / qcomp=0.65 / qpmin=0 / qpmax=69 / qpstep=4 / vbv_maxrate=50000 / vbv_bufsize=62500 / crf_max=0.0 / nal_hrd=none / filler=0 / ip_ratio=1.40 / pb_ratio=1.30 / aq=3:0.85 / zones=142882,153159,q=34
Default : Yes
Forced : No
Audio
ID : 1
Format : AC-3
Format/Info : Audio Coding 3
Mode extension : CM (complete main)
Format settings, Endianness : Big
Codec ID : A_AC3
Duration : 1 h 42 min
Bit rate mode : Constant
Bit rate : 384 kb/s
Channel(s) : 6 channels
Channel positions : Front: L C R, Side: L R, LFE
Sampling rate : 48.0 kHz
Frame rate : 31.250 FPS (1536 spf)
Compression mode : Lossy
Stream size : 280 MiB (19%)
Title : [DUB] DD 5.1 @ 384 kbps
Language : Russian
Default : Yes
Forced : No
Menu
00:00:00.000 : en:Глава 1
00:06:53.880 : en:Глава 2
00:13:00.800 : en:Глава 3
00:18:26.480 : en:Глава 4
00:23:07.080 : en:Глава 5
00:29:40.840 : en:Глава 6
00:35:34.280 : en:Глава 7
00:42:33.960 : en:Глава 8
00:50:41.880 : en:Глава 9
00:56:30.120 : en:Глава 10
01:05:03.080 : en:Глава 11
01:12:06.000 : en:Глава 12
01:17:44.480 : en:Глава 13
01:25:23.160 : en:Глава 14

Зображення

[Профіль] [ОП]
Показати повідомлення:    
Відповісти на тему

Поточний час: 18-Січ 19:02

Часовий пояс: UTC + 3



Ви не можете починати теми
Ви не можете відповідати на повідомлення
Ви не можете редагувати свої повідомлення
Ви не можете видаляти свої повідомлення
Ви не можете голосувати в опитуваннях
Ви не можете прикріплювати файли до повідомлень
Ви не можете скачувати файли